#TITLE:Necropotence;
#SUBTITLE:done right;
#ARTIST:T+Pazolite;
#TITLETRANSLIT:;
#SUBTITLETRANSLIT:;
#ARTISTTRANSLIT:;
#CREDIT:;
#BANNER:bn.jpg;
#BACKGROUND:bg.jpg;
#LYRICSPATH:;
#CDTITLE:!Torrent.png;
#MUSIC:Necropotence.mp3;
#OFFSET:-8.660;
#SAMPLESTART:17.300;
#SAMPLELENGTH:17.320;
#SELECTABLE:YES;
#BPMS:0.000=222.000,520.000=444.000,648.000=222.000;
#STOPS:;
#BGCHANGES:;
// cache tags:
#FIRSTBEAT:0.000;
#LASTBEAT:743.875;
#SONGFILENAME:Songs/Music V.I.P ^_^/Necropotence/Necropotence.sm;
#HASMUSIC:1;
#HASBANNER:1;
#MUSICLENGTH:193.967;
// end cache tags

//---------------dance-single - ----------------
#NOTES:
     dance-single:
     :
     Hard:
     14:
     1.000,1.000,1.000,0.000,1.000,2058.000,923.000,0.000,0.000,0.000:
1010
0001
0110
0000
1010
0001
0110
0000
1010
0001
1000
0100
1000
0010
1001
0000
,
1010
0001
0110
0000
1010
0001
0110
0000
1010
0001
1000
0100
1000
0010
1001
0100
,
1010
0001
0110
0000
1010
0001
0110
0000
1010
0001
1000
0100
1000
0010
1001
0000
,
1010
0001
0110
0000
1010
0001
0110
0000
1010
0001
0010
0100
1000
0010
1001
0100
,
1010
0001
0110
0000
1010
0001
0110
0000
1010
0001
1000
0100
1000
0010
1001
0000
,
1010
0001
0110
0000
1010
0001
0110
0000
1010
0001
1000
0100
1000
0010
1001
0100
,
1010
0001
0110
0000
1010
0001
0110
0000
1010
0001
1000
0100
1000
0010
1001
0000
,
1000
0000
1000
0000
1000
0000
1000
0000
1001
0100
1001
0100
1001
0010
1100
0010
,
1001
0110
0011
0110
1100
0110
1001
1010
,
1001
0000
0110
0000
0011
0000
0110
0000
1100
0000
0110
0000
1001
0000
1010
0100
,
1001
0110
0011
0110
1100
0110
1001
1010
,
1001
0010
0101
0000
0011
0000
0110
0001
1100
0001
1010
0100
1001
0000
1010
0000
,
1001
0110
0011
0110
1100
0110
1001
1010
,
1001
0000
0110
0000
0011
0000
0110
0000
1100
0000
0110
0000
1001
0000
1010
0100
,
1001
0110
0011
0110
1100
0110
1001
1010
,
1001
0010
0101
0000
0011
0000
0110
0001
1100
0001
1010
0100
1001
0100
1010
0100
,
1001
0110
0011
0110
1100
0110
1001
1010
,
1001
0000
0110
0000
0011
0000
0110
0000
1100
0000
0110
0000
1001
0000
1010
0100
,
1001
0110
0011
0110
1100
0110
1001
1010
,
1001
0010
0101
0000
0011
0000
0110
0001
1100
0001
1010
0100
1001
0000
1010
0000
,
1001
0110
0011
0110
1100
0110
1001
1010
,
1001
0000
0110
0000
0011
0000
0110
0000
1100
0000
0110
0000
1001
0000
1010
0100
,
1001
0110
0011
0110
1100
0110
1001
1010
,
1001
0010
1100
0010
1001
0010
1100
0010
1001
0010
1100
0010
1001
0010
1100
0001
,
1010
0001
0110
0000
1010
0001
0110
0000
1010
0001
1000
0100
1000
0010
1001
0000
,
1010
0001
0110
0000
1010
0001
0110
0000
1010
0001
1000
0100
1000
0010
1001
0100
,
1010
0001
0110
0000
1010
0001
0110
0000
1010
0001
1000
0100
1000
0010
1001
0000
,
1010
0001
0110
0000
1010
0001
0110
0000
1010
0001
0010
0100
1000
0010
1001
0100
,
1010
0001
0110
0000
1010
0001
0110
0000
1010
0001
1000
0100
1000
0010
1001
0000
,
1010
0001
0110
0000
1010
0001
0110
0000
1010
0001
1000
0100
1000
0010
1001
0100
,
1010
0001
0110
0000
1010
0001
0110
0000
1010
0001
1000
0100
1000
0010
1001
0000
,
1010
0001
0110
0000
1010
0001
0110
0000
1010
0001
0010
0100
1000
0010
1001
0100
,
1010
0001
0110
0000
1010
0001
0110
0000
1010
0001
1000
0100
1000
0010
1001
0000
,
1010
0001
0110
0000
1010
0001
0110
0000
1010
0001
1000
0100
1000
0010
1001
0100
,
1010
0001
0110
0000
1010
0001
0110
0000
1010
0001
1000
0100
1000
0010
1001
0000
,
1010
0001
0110
0000
1010
0001
0110
0000
1010
0001
0010
0100
1000
0010
1001
0100
,
1010
0001
0110
0000
1010
0001
0110
0000
1010
0001
1000
0100
1000
0010
1001
0000
,
1010
0001
0110
0000
1010
0001
0110
0000
1010
0001
1000
0100
1000
0010
1001
0100
,
1010
0001
0110
0000
1010
0001
0110
0000
1010
0001
1000
0100
1000
0010
1001
0000
,
1010
0001
0110
0000
1010
0001
0110
0000
1010
0001
0010
0100
1000
0010
1001
0100
,
1000
0010
1000
0010
1000
0010
1000
0010
1001
0100
1001
0100
1001
0010
1100
0010
,
1001
0100
1010
0000
0011
1000
0110
0000
1100
0001
0110
0000
1001
0000
1010
0100
,
1001
0100
1010
0000
0011
1000
0110
0000
1100
0001
0110
0000
1001
0100
1010
0100
,
1001
0100
1010
0000
0011
1000
0110
0000
1100
0001
0110
0000
1001
0000
1010
0100
,
1001
0100
1010
0000
0011
1000
0110
0001
1100
0001
1010
0100
1001
0100
1010
0100
,
1001
0100
1010
0000
0011
1000
0110
0000
1100
0001
0110
0000
1001
0000
1010
0100
,
1001
0100
1010
0000
0011
1000
0110
0000
1100
0001
0110
0000
1001
0100
1010
0100
,
1001
0100
1010
0000
0011
1000
0110
0000
1100
0001
0110
0000
1001
0000
1010
0100
,
1001
0100
1010
0000
0011
1000
0110
0001
1100
0001
1010
0100
1001
0100
1010
0100
,
1001
0100
1010
0000
0011
1000
0110
0000
1100
0001
0110
0000
1001
0000
1010
0100
,
1001
0100
1010
0000
0011
1000
0110
0000
1100
0001
0110
0000
1001
0100
1010
0100
,
1001
0100
1010
0000
0011
1000
0110
0000
1100
0001
0110
0000
1001
0000
1010
0100
,
1001
0100
1010
0000
0011
1000
0110
0001
1100
0001
1010
0100
1001
0100
1010
0100
,
1001
0100
1010
0000
0011
1000
0110
0000
1100
0001
0110
0000
1001
0000
1010
0100
,
1001
0100
1010
0000
0011
1000
0110
0000
1100
0001
0110
0000
1001
0100
1010
0100
,
1001
0100
1010
0000
0011
1000
0110
0000
1100
0001
0110
0000
1001
0000
1010
0100
,
1001
0100
1010
0000
0011
1000
0110
0001
1100
0001
1010
0100
1001
0100
1010
0100
,
1001
0100
0010
0100
1001
0010
0001
0010
,
1001
0000
0100
0000
0010
0000
0100
0000
1001
0000
0010
0100
0001
0000
0110
0000
,
1001
0100
0010
0100
1001
0010
0001
0010
,
1001
0100
0010
0100
1001
0010
0101
0010
,
1001
0000
0100
1000
0010
0000
1100
0000
1001
0000
0010
1000
0001
0000
1010
0000
,
1001
0000
0100
1000
0010
0000
1100
0000
1001
0000
0010
1000
0001
0000
1010
0000
,
1001
0101
0011
0101
1001
0011
1001
0011
,
1001
0010
0101
0000
0011
0000
0101
0010
1001
0100
0011
0100
1001
0100
0011
0100
,
1010
0001
0110
0000
1010
0001
0110
0000
1010
0001
1000
0100
1000
0010
1001
0000
,
1010
0001
0110
0000
1010
0001
0110
0000
1010
0001
1000
0100
1000
0010
1001
0100
,
1010
0001
0110
0000
1010
0001
0110
0000
1010
0001
1000
0100
1000
0010
1001
0000
,
1010
0001
0110
0000
1010
0001
0110
0000
1010
0001
0010
0100
1000
0010
1001
0100
,
1010
0001
0110
0000
1010
0001
0110
0000
1010
0001
1000
0100
1000
0010
1001
0000
,
1010
0001
0110
0000
1010
0001
0110
0000
1010
0001
1000
0100
1000
0010
1001
0100
,
1010
0001
0110
0000
1010
0001
0110
0000
1010
0001
1000
0100
1000
0010
1001
0000
,
1010
0001
0110
0000
1010
0001
0110
0000
1010
0001
0010
0100
1000
0010
1001
0100
,
1010
0001
0110
0000
1010
0001
0110
0000
1010
0001
1000
0100
1000
0010
1001
0000
,
1010
0001
0110
0000
1010
0001
0110
0000
1010
0001
1000
0100
1000
0010
1001
0100
,
1010
0001
0110
0000
1010
0001
0110
0000
1010
0001
1000
0100
1000
0010
1001
0000
,
1010
0001
0110
0000
1010
0001
0110
0000
1010
0001
0010
0100
1000
0010
1001
0100
,
1010
0001
0110
0000
1010
0001
0110
0000
1010
0001
1000
0100
1000
0010
1001
0000
,
1010
0001
0110
0000
1010
0001
0110
0000
1010
0001
1000
0100
1000
0010
1001
0100
,
1010
0001
0110
0000
1010
0001
0110
0000
1010
0001
1000
0100
1000
0010
1001
0000
,
1010
0000
0000
0000
0000
0000
0000
0000
1000
0001
0100
0010
1000
0100
0010
0001
,
1100
0010
1001
0100
0011
0100
1010
0101
,
1000
0000
0100
0000
0011
0000
1000
0000
0110
0000
0001
0000
1100
0000
0010
0100
,
1001
0010
1001
0100
0011
0100
1010
0101
,
1000
0000
0100
0000
0011
0000
1000
0000
0110
1000
0001
0000
1100
0000
0010
0100
,
1001
0010
1001
0100
0011
0100
1010
0101
,
1000
0000
0100
0000
0011
0000
1000
0000
0110
0000
0001
0000
1100
0000
0010
0100
,
1001
0010
1001
0100
0011
0100
1010
0101
,
1000
0010
0100
0000
0011
0000
1000
0000
0110
1000
0001
0010
1100
0001
0010
0100
,
1001
0010
1001
0100
0011
0100
1010
0101
,
1000
0000
0100
0000
0011
0000
1000
0000
0110
0000
0001
0000
1100
0000
0010
0100
,
1001
0010
1001
0100
0011
0100
1010
0101
,
1000
0000
0100
0000
0011
0000
1000
0000
0110
1000
0001
0000
1100
0000
0010
0100
,
1001
0010
1001
0100
0011
0100
1010
0101
,
1000
0000
0100
0000
0011
0000
1000
0000
0110
0000
0001
0000
1100
0000
0010
0100
,
1001
0010
1001
0100
0011
0100
1010
0101
,
1000
0010
0100
0000
0011
0000
1000
0000
0110
1000
0001
0010
1100
0001
0010
0100
,
1010
0001
0100
0000
1000
0001
0110
0000
1100
0001
0000
0100
0000
0010
0101
0000
,
1010
0001
0100
0000
1000
0001
0110
0000
1100
0001
0000
0100
1000
0010
0001
0000
,
1010
0001
0100
0000
1000
0001
0110
0000
1100
0001
0000
0100
0000
0010
0101
0000
,
1010
0001
0100
0000
1000
0001
0110
0000
1100
0001
0000
1100
0000
0010
0101
0000
,
1010
0001
0100
0000
1000
0001
0110
0000
1100
0001
0000
0100
0000
0010
0101
0000
,
1010
0001
0100
0000
1000
0001
0110
0000
1100
0001
0000
0100
1000
0010
0001
0000
,
1010
0001
0100
0000
1000
0001
0110
0000
1100
0001
0000
0100
0000
0010
0101
0000
,
1010
0001
0100
0000
1010
0001
0100
0000
1010
0001
0000
0100
1000
0010
0001
0000
,
1010
0001
0110
0000
1000
0001
0110
0000
1100
0001
0010
0100
1000
0010
0101
0000
,
1010
0001
0110
0000
1000
0001
0110
0000
1100
0001
0010
0100
1001
0010
0001
0000
,
1010
0001
0110
0000
1000
0001
0110
0000
1100
0001
0010
0100
1000
0010
0101
0000
,
1010
0001
0110
0000
1000
0001
0110
0000
1100
0001
0010
1100
0011
0100
0001
0000
,
1010
0001
0110
0000
1000
0001
0110
0000
1100
0001
0010
0100
0000
0010
0101
0000
,
1010
0001
0110
0000
1000
0001
0110
0000
1100
0001
0010
0100
1000
0010
0101
0000
,
1010
0001
0110
0000
1000
0001
0110
0000
1100
0001
0000
0100
1000
0010
0101
0000
,
1010
0001
1100
0000
1010
0001
1100
0000
1010
0101
1010
0101
1010
0101
1010
0101
,
1010
0000
1000
0000
1000
0000
1000
0000
1001
0100
1001
0100
1001
0010
1100
0010
,
1001
0110
0011
0110
1100
0110
1001
1010
,
1001
0000
0110
0000
0011
0000
0110
0000
1100
0000
0110
0000
1001
0000
1010
0100
,
1001
0110
0011
0110
1100
0110
1001
1010
,
1001
0010
0101
0000
0011
0000
0110
0001
1100
0001
1010
0100
1001
0000
1010
0000
,
1001
0110
0011
0110
1100
0110
1001
1010
,
1001
0000
0110
0000
0011
0000
0110
0000
1100
0000
0110
0000
1001
0000
1010
0100
,
1001
0110
0011
0110
1100
0110
1001
1010
,
1001
0010
0101
0000
0011
0000
0110
0001
1100
0001
1010
0100
1001
0100
1010
0100
,
1001
0110
0011
0110
1100
0110
1001
1010
,
1001
0000
0110
0000
0011
0000
0110
0000
1100
0000
0110
0000
1001
0000
1010
0100
,
1001
0110
0011
0110
1100
0110
1001
1010
,
1001
0010
0101
0000
0011
0000
0110
0001
1100
0001
1010
0100
1001
0000
1010
0000
,
1001
0110
0011
0110
1100
0110
1001
1010
,
1001
0000
0110
0000
0011
0000
0110
0000
1100
0000
0110
0000
1001
0000
1010
0100
,
1001
0110
0011
0110
1100
0110
1001
1010
,
1001
0000
1000
0000
1000
0000
1000
0000
1001
0010
1100
0010
1001
0100
1010
0100
,
1000
0010
0100
0001
1000
0100
0010
0001
,
1000
0010
0100
0001
1000
0100
0010
0001
,
1000
0010
0100
0001
1000
0100
0010
0001
,
1000
0000
0010
0000
0100
0000
0001
0000
1000
0100
0010
0000
0001
0000
1000
0000
,
0001
0100
0010
1000
0001
0010
0100
1000
,
0001
0100
0010
1000
0001
0010
0100
1000
,
0001
0000
0100
0000
0010
0000
1000
0000
0001
0010
0100
0000
1000
0000
0001
0000
,
0010
0000
0100
0000
1000
0000
0001
0000
1000
0100
0010
0001
1000
0100
0010
0001
,
1000
0010
0100
0001
1000
0100
0010
0001
,
1000
0010
0100
0001
1000
0100
0010
0001
,
1000
0010
0100
0001
1000
0100
0010
0001
,
1000
0000
0010
0000
0100
0000
0001
0000
1000
0100
0010
0000
0001
0000
1000
0000
,
0001
0100
0010
1000
0001
0010
0100
1000
,
0001
0100
0010
1000
0001
0010
0100
1000
,
0001
0000
0100
0000
0010
0000
1000
0000
0001
0010
0100
0000
1000
0000
0001
0000
,
0010
0000
0100
0000
1000
0000
0001
0000
1000
0100
0010
0001
1000
0100
0010
0001
,
1000
0010
0100
0001
1000
0100
0010
0001
,
1000
0010
0100
0001
1000
0100
0010
0001
,
1000
0010
0100
0001
1000
0100
0010
0001
,
1000
0000
0010
0000
0100
0000
0001
0000
1000
0100
0010
0000
0001
0000
1000
0000
,
0001
0100
0010
1000
0001
0010
0100
1000
,
0001
0100
0010
1000
0001
0010
0100
1000
,
0001
0000
0100
0000
0010
0000
1000
0000
0001
0010
0100
0000
1000
0000
0001
0000
,
0010
0000
0100
0000
1000
0000
0001
0000
1000
0100
0010
0001
1000
0100
0010
0001
,
1000
0010
0100
0001
1000
0100
0010
0001
,
1000
0010
0100
0001
1000
0100
0010
0001
,
1000
0010
0100
0001
1000
0100
0010
0001
,
1000
0000
0010
0000
0100
0000
0001
0000
1000
0100
0010
0000
0001
0000
1000
0000
,
0001
0100
0010
1000
0001
0010
0100
1000
,
0001
0100
0010
1000
0001
0010
0100
1000
,
0001
0000
0100
0000
0010
0000
1000
0000
0001
0010
0100
0000
1000
0000
0001
0000
,
0010
0000
0100
0000
1000
0000
0001
0000
1000
0100
0010
0001
1000
0100
0010
0001
,
1000
0100
0010
0100
1001
0010
0001
0010
,
1001
0000
0100
0000
0010
0000
0100
0000
1001
0000
0010
0100
0001
0000
0110
0000
,
1001
0100
0010
0100
1001
0010
0001
0010
,
1001
0100
0010
0100
1001
0010
0101
0010
,
1001
0000
0100
1000
0010
0000
1100
0000
1001
0000
0010
1000
0001
0000
1010
0000
,
1001
0000
0100
1000
0010
0000
1100
0000
1001
0000
0010
1000
0001
0000
1010
0000
,
1001
0101
0011
0101
1001
0011
1001
0011
,
1001
0010
0101
0000
0011
0000
0101
0010
1001
0100
0011
0100
1001
0100
0011
0100
,
1010
0001
0110
0000
1010
0001
0110
0000
1010
0001
1000
0100
1000
0010
1001
0000
,
1010
0001
0110
0000
1010
0001
0110
0000
1010
0001
1000
0100
1000
0010
1001
0100
,
1010
0001
0110
0000
1010
0001
0110
0000
1010
0001
1000
0100
1000
0010
1001
0000
,
1010
0001
0110
0000
1010
0001
0110
0000
1010
0001
0010
0100
1000
0010
1001
0100
,
1010
0001
0110
0000
1010
0001
0110
0000
1010
0001
1000
0100
1000
0010
1001
0000
,
1010
0001
0110
0000
1010
0001
0110
0000
1010
0001
1000
0100
1000
0010
1001
0100
,
1010
0001
0110
0000
1010
0001
0110
0000
1010
0001
1000
0100
1000
0010
1001
0000
,
1010
0001
0110
0000
1010
0001
0110
0000
1010
0001
0010
0100
1000
0010
1001
0100
,
1010
0001
0110
0000
1010
0001
0110
0000
1010
0001
1000
0100
1000
0010
1001
0000
,
1010
0001
0110
0000
1010
0001
0110
0000
1010
0001
1000
0100
1000
0010
1001
0100
,
1010
0001
0110
0000
1010
0001
0110
0000
1010
0001
1000
0100
1000
0010
1001
0000
,
1010
0001
0110
0000
1010
0001
0110
0000
1010
0001
0010
0100
1000
0010
1001
0100
,
1010
0001
0110
0000
1010
0001
0110
0000
1010
0001
1000
0100
1000
0010
1001
0000
,
1010
0001
0110
0000
1010
0001
0110
0000
1010
0001
1000
0100
1000
0010
1001
0100
,
1010
0001
0110
0000
1010
0001
0110
0000
1010
0001
1000
0100
1000
0010
1001
0000
,
1010
0000
0000
0000
0000
0000
0000
0000
0000
0000
0000
0000
0000
0000
0000
0000
1000
0000
0001
0000
0100
0000
0010
0000
1000
0100
0010
0001
1000
0100
0010
0001
;

//---------------dance-single - ----------------
#NOTES:
     dance-single:
     :
     Challenge:
     15:
     1.000,1.000,1.000,0.000,1.000,2186.000,948.000,0.000,0.000,0.000:
1010
0001
0110
0000
1010
0001
0110
0000
1010
0001
1000
0100
1000
0010
1001
0000
,
1010
0001
0110
0000
1010
0001
0110
0000
1010
0001
1000
0100
1000
0010
1001
0100
,
1010
0001
0110
0000
1010
0001
0110
0000
1010
0001
1000
0100
1000
0010
1001
0000
,
1010
0000
0001
0000
0110
0000
0000
0000
1010
0000
0001
0000
0110
0000
0000
0000
1010
0100
0001
0000
0010
0000
0100
0000
1000
0100
0010
0001
1000
0100
0010
0001
,
1100
0001
0110
0000
1010
0001
0110
0000
1010
0001
1000
0100
1000
0010
1001
0000
,
1010
0001
0110
0000
1010
0001
0110
0000
1010
0001
1000
0100
1000
0010
1001
0100
,
1010
0001
0110
0000
1010
0001
0110
0000
1010
0001
1000
0100
1000
0010
1001
0000
,
1000
0000
0000
0000
1000
0000
0000
0000
1000
0000
0000
0000
1000
0000
0000
0000
1001
0010
0100
0000
1001
0000
0100
0000
1000
0100
0010
0001
1000
0100
0010
0001
,
1100
0110
0011
0110
1100
0110
1001
1010
,
1001
0000
0110
0000
0011
0000
0110
0000
1100
0000
0110
0000
1001
0000
1010
0100
,
1001
0110
0011
0110
1100
0110
1001
1010
,
1001
0000
0010
0000
0101
0000
0000
0000
0011
0000
0000
0000
0110
0000
0001
0000
1100
0010
0001
0000
1010
0000
0000
0000
1000
0100
0010
0001
1000
0100
0010
0001
,
1100
0110
0011
0110
1100
0110
1001
1010
,
1001
0000
0110
0000
0011
0000
0110
0000
1100
0000
0110
0000
1001
0000
1010
0100
,
1001
0110
0011
0110
1100
0110
1001
1010
,
1001
0000
0010
0000
0101
0000
0000
0000
0011
0000
0000
0000
0110
0000
0001
0000
1100
0010
0001
0000
1010
0000
0100
0000
1000
0100
0010
0001
1000
0100
0010
0001
,
1100
0110
0011
0110
1100
0110
1001
1010
,
1001
0000
0110
0000
0011
0000
0110
0000
1100
0000
0110
0000
1001
0000
1010
0100
,
1001
0110
0011
0110
1100
0110
1001
1010
,
1001
0000
0010
0000
0101
0000
0000
0000
0011
0000
0000
0000
0110
0000
0001
0000
1100
0010
0001
0000
1010
0000
0000
0000
1000
0100
0010
0001
1000
0100
0010
0001
,
1100
0110
0011
0110
1100
0110
1001
1010
,
1001
0000
0110
0000
0011
0000
0110
0000
1100
0000
0110
0000
1001
0000
1010
0100
,
1001
0110
0011
0110
1100
0110
1001
1010
,
1001
0000
0010
0000
0101
0000
0000
0000
0011
0000
0000
0000
0110
0000
0001
0000
1100
0010
0001
0000
1010
0000
0100
0000
1000
0100
0010
0001
1000
0100
0010
0001
,
1100
0001
0110
0000
1010
0001
0110
0000
1010
0001
1000
0100
1000
0010
1001
0000
,
1010
0001
0110
0000
1010
0001
0110
0000
1010
0001
1000
0100
1000
0010
1001
0100
,
1010
0001
0110
0000
1010
0001
0110
0000
1010
0001
1000
0100
1000
0010
1001
0000
,
1010
0001
0110
0000
1010
0001
0110
0000
1010
0001
0010
0100
1000
0010
1001
0100
,
1010
0001
0110
0000
1010
0001
0110
0000
1010
0001
1000
0100
1000
0010
1001
0000
,
1010
0001
0110
0000
1010
0001
0110
0000
1010
0001
1000
0100
1000
0010
1001
0100
,
1010
0001
0110
0000
1010
0001
0110
0000
1010
0001
1000
0100
1000
0010
1001
0000
,
1010
0000
0001
0000
0110
0000
0000
0000
1010
0000
0001
0000
0110
0000
0000
0000
1010
0100
0001
0000
0010
0000
0100
0000
1000
0100
0010
0001
1000
0100
0010
0001
,
1100
0001
0110
0000
1010
0001
0110
0000
1010
0001
1000
0100
1000
0010
1001
0000
,
1010
0001
0110
0000
1010
0001
0110
0000
1010
0001
1000
0100
1000
0010
1001
0100
,
1010
0001
0110
0000
1010
0001
0110
0000
1010
0001
1000
0100
1000
0010
1001
0000
,
1010
0001
0110
0000
1010
0001
0110
0000
1010
0001
0010
0100
1000
0010
1001
0100
,
1010
0001
0110
0000
1010
0001
0110
0000
1010
0001
1000
0100
1000
0010
1001
0000
,
1010
0001
0110
0000
1010
0001
0110
0000
1010
0001
1000
0100
1000
0010
1001
0100
,
1010
0001
0110
0000
1010
0001
0110
0000
1010
0001
1000
0100
1000
0010
1001
0000
,
1010
0000
0001
0000
0110
0000
0000
0000
1010
0000
0001
0000
0110
0000
0000
0000
1010
0100
0001
0000
0010
0000
0100
0000
1000
0100
0010
0001
1000
0100
0010
0001
,
1000
0010
1000
0010
1000
0010
1000
0010
1001
0100
1001
0100
1001
0010
1100
0010
,
1001
0100
1010
0000
0011
1000
0110
0000
1100
0001
0110
0000
1001
0000
1010
0100
,
1001
0100
1010
0000
0011
1000
0110
0000
1100
0001
0110
0000
1001
0100
1010
0100
,
1001
0100
1010
0000
0011
1000
0110
0000
1100
0001
0110
0000
1001
0000
1010
0100
,
1001
0000
0100
0000
1010
0000
0000
0000
0011
0000
1000
0000
0110
0000
0001
0000
1100
0010
0001
0000
1010
0000
0100
0000
1000
0100
0010
0001
1000
0100
0010
0001
,
1100
0001
1010
0000
0011
1000
0110
0000
1100
0001
0110
0000
1001
0000
1010
0100
,
1001
0100
1010
0000
0011
1000
0110
0000
1100
0001
0110
0000
1001
0100
1010
0100
,
1001
0100
1010
0000
0011
1000
0110
0000
1100
0001
0110
0000
1001
0000
1010
0100
,
1001
0000
0100
0000
1010
0000
0000
0000
0011
0000
1000
0000
0110
0000
0001
0000
1100
0010
0001
0000
1010
0000
0100
0000
1000
0100
0010
0001
1000
0100
0010
0001
,
1100
0001
1010
0000
0011
1000
0110
0000
1100
0001
0110
0000
1001
0000
1010
0100
,
1001
0100
1010
0000
0011
1000
0110
0000
1100
0001
0110
0000
1001
0100
1010
0100
,
1001
0100
1010
0000
0011
1000
0110
0000
1100
0001
0110
0000
1001
0000
1010
0100
,
1001
0000
0100
0000
1010
0000
0000
0000
0011
0000
1000
0000
0110
0000
0001
0000
1100
0010
0001
0000
1010
0000
0100
0000
1000
0100
0010
0001
1000
0100
0010
0001
,
1100
0001
1010
0000
0011
1000
0110
0000
1100
0001
0110
0000
1001
0000
1010
0100
,
1001
0100
1010
0000
0011
1000
0110
0000
1100
0001
0110
0000
1001
0100
1010
0100
,
1001
0100
1010
0000
0011
1000
0110
0000
1100
0001
0110
0000
1001
0000
1010
0100
,
1001
0000
0100
0000
1010
0000
0000
0000
0011
0000
1000
0000
0110
0000
0001
0000
1100
0010
0001
0000
1010
0000
0100
0000
1000
0100
0010
0001
1000
0100
0010
0001
,
1100
0100
0010
0100
1001
0010
0001
0010
,
1001
0000
0100
0000
0010
0000
0100
0000
1001
0000
0010
0100
0001
0000
0110
0000
,
1001
0100
0010
0100
1001
0010
0001
0010
,
1001
0100
0010
0100
1001
0010
0101
0010
,
1001
0000
0100
1000
0010
0000
1100
0000
1001
0000
0010
1000
0001
0000
1010
0000
,
1001
0000
0100
1000
0010
0000
1100
0000
1001
0000
0010
1000
0001
0000
1010
0000
,
1001
0101
0011
0101
1001
0011
1001
0011
,
1001
0000
0010
0000
0101
0000
0000
0000
0011
0000
0000
0000
0101
0000
0010
0000
1001
0010
0100
0000
0011
0000
0100
0000
1000
0100
0010
0001
1000
0100
0010
0001
,
1100
0001
0110
0000
1010
0001
0110
0000
1010
0001
1000
0100
1000
0010
1001
0000
,
1010
0001
0110
0000
1010
0001
0110
0000
1010
0001
1000
0100
1000
0010
1001
0100
,
1010
0001
0110
0000
1010
0001
0110
0000
1010
0001
1000
0100
1000
0010
1001
0000
,
1010
0001
0110
0000
1010
0001
0110
0000
1010
0001
0010
0100
1000
0010
1001
0100
,
1010
0001
0110
0000
1010
0001
0110
0000
1010
0001
1000
0100
1000
0010
1001
0000
,
1010
0001
0110
0000
1010
0001
0110
0000
1010
0001
1000
0100
1000
0010
1001
0100
,
1010
0001
0110
0000
1010
0001
0110
0000
1010
0001
1000
0100
1000
0010
1001
0000
,
1010
0000
0001
0000
0110
0000
0000
0000
1010
0000
0001
0000
0110
0000
0000
0000
1010
0100
0001
0000
0010
0000
0100
0000
1000
0100
0010
0001
1000
0100
0010
0001
,
1100
0001
0110
0000
1010
0001
0110
0000
1010
0001
1000
0100
1000
0010
1001
0000
,
1010
0001
0110
0000
1010
0001
0110
0000
1010
0001
1000
0100
1000
0010
1001
0100
,
1010
0001
0110
0000
1010
0001
0110
0000
1010
0001
1000
0100
1000
0010
1001
0000
,
1010
0001
0110
0000
1010
0001
0110
0000
1010
0001
0010
0100
1000
0010
1001
0100
,
1010
0001
0110
0000
1010
0001
0110
0000
1010
0001
1000
0100
1000
0010
1001
0000
,
1010
0001
0110
0000
1010
0001
0110
0000
1010
0001
1000
0100
1000
0010
1001
0100
,
1010
0001
0110
0000
1010
0001
0110
0000
1010
0001
1000
0100
1000
0010
1001
0000
,
1010
0000
0000
0000
0000
0000
0000
0000
0000
0000
0000
0000
0000
0000
0000
0000
1000
0100
0010
0000
1000
0000
0001
0000
1000
0100
0010
0001
1000
0100
0010
0001
,
1100
0010
1001
0100
0011
0100
1010
0101
,
1000
0000
0100
0000
0011
0000
1000
0000
0110
0000
0001
0000
1100
0000
0010
0100
,
1001
0010
1001
0100
0011
0100
1010
0101
,
1000
0000
0100
0000
0011
0000
1000
0000
0110
1000
0001
0000
1100
0000
0010
0100
,
1001
0010
1001
0100
0011
0100
1010
0101
,
1000
0000
0100
0000
0011
0000
1000
0000
0110
0000
0001
0000
1100
0000
0010
0100
,
1001
0010
1001
0100
0011
0100
1010
0101
,
1000
0000
0010
0000
0100
0000
0000
0000
0011
0000
0000
0000
1000
0000
0001
0000
0110
1000
0001
0000
0010
0000
0100
0000
1000
0100
0010
0001
1000
0100
0010
0001
,
1100
0010
1001
0100
0011
0100
1010
0101
,
1000
0000
0100
0000
0011
0000
1000
0000
0110
0000
0001
0000
1100
0000
0010
0100
,
1001
0010
1001
0100
0011
0100
1010
0101
,
1000
0000
0100
0000
0011
0000
1000
0000
0110
1000
0001
0000
1100
0000
0010
0100
,
1001
0010
1001
0100
0011
0100
1010
0101
,
1000
0000
0100
0000
0011
0000
1000
0000
0110
0000
0001
0000
1100
0000
0010
0100
,
1001
0010
1001
0100
0011
0100
1010
0101
,
1000
0000
0010
0000
0100
0000
0000
0000
0011
0000
0000
0000
1000
0000
0001
0000
0110
1000
0001
0000
0010
0000
0100
0000
1000
0100
0010
0001
1000
0100
0010
0001
,
1100
0001
0100
0000
1000
0001
0110
0000
1100
0001
0000
0100
0000
0010
0101
0000
,
1010
0001
0100
0000
1000
0001
0110
0000
1100
0001
0000
0100
1000
0010
0001
0000
,
1010
0001
0100
0000
1000
0001
0110
0000
1100
0001
0000
0100
0000
0010
0101
0000
,
1010
0001
0100
0000
1000
0001
0110
0000
1100
0001
0000
1100
0000
0010
0101
0000
,
1010
0001
0100
0000
1000
0001
0110
0000
1100
0001
0000
0100
0000
0010
0101
0000
,
1010
0001
0100
0000
1000
0001
0110
0000
1100
0001
0000
0100
1000
0010
0001
0000
,
1010
0001
0100
0000
1000
0001
0110
0000
1100
0001
0000
0100
0000
0010
0101
0000
,
1010
0001
0100
0000
1010
0001
0100
0000
1010
0001
0000
0100
1000
0010
0001
0000
,
1010
0001
0110
0000
1000
0001
0110
0000
1100
0001
0010
0100
1000
0010
0101
0000
,
1010
0001
0110
0000
1000
0001
0110
0000
1100
0001
0010
0100
1001
0010
0001
0000
,
1010
0001
0110
0000
1000
0001
0110
0000
1100
0001
0010
0100
1000
0010
0101
0000
,
1010
0001
0110
0000
1000
0001
0110
0000
1100
0001
0010
1100
0011
0100
0001
0000
,
1010
0001
0110
0000
1000
0001
0110
0000
1100
0001
0010
0100
0000
0010
0101
0000
,
1010
0001
0110
0000
1000
0001
0110
0000
1100
0001
0010
0100
1000
0010
0101
0000
,
1010
0001
0110
0000
1000
0001
0110
0000
1100
0001
0000
0100
1000
0010
0101
0000
,
1010
0001
1100
0000
1010
0001
1100
0000
1010
0101
1010
0101
1010
0101
1010
0101
,
1010
0000
0000
0000
1000
0000
0000
0000
1000
0000
0000
0000
1000
0000
0000
0000
1001
0010
0100
0000
1001
0000
0100
0000
1000
0100
0010
0001
1000
0100
0010
0001
,
1100
0110
0011
0110
1100
0110
1001
1010
,
1001
0000
0110
0000
0011
0000
0110
0000
1100
0000
0110
0000
1001
0000
1010
0100
,
1001
0110
0011
0110
1100
0110
1001
1010
,
1001
0000
0010
0000
0101
0000
0000
0000
0011
0000
0000
0000
0110
0000
0001
0000
1100
0010
0001
0000
1010
0000
0100
0000
1000
0100
0010
0001
1000
0100
0010
0001
,
1100
0110
0011
0110
1100
0110
1001
1010
,
1001
0000
0110
0000
0011
0000
0110
0000
1100
0000
0110
0000
1001
0000
1010
0100
,
1001
0110
0011
0110
1100
0110
1001
1010
,
1001
0000
0010
0000
0101
0000
0000
0000
0011
0000
0000
0000
0110
0000
0001
0000
1100
0010
0001
0000
1010
0000
0100
0000
1000
0100
0010
0001
1000
0100
0010
0001
,
1100
0110
0011
0110
1100
0110
1001
1010
,
1001
0000
0110
0000
0011
0000
0110
0000
1100
0000
0110
0000
1001
0000
1010
0100
,
1001
0110
0011
0110
1100
0110
1001
1010
,
1001
0000
0010
0000
0101
0000
0000
0000
0011
0000
0000
0000
0110
0000
0001
0000
1100
0010
0001
0000
1010
0000
0100
0000
1000
0100
0010
0001
1000
0100
0010
0001
,
1100
0110
0011
0110
1100
0110
1001
1010
,
1001
0000
0110
0000
0011
0000
0110
0000
1100
0000
0110
0000
1001
0000
1010
0100
,
1001
0110
0011
0110
1100
0110
1001
1010
,
1000
0000
0000
0000
1000
0000
0000
0000
1000
0000
0000
0000
1000
0000
0000
0000
1100
0010
0001
0000
1010
0000
0100
0000
1000
0100
0010
0001
1000
0100
0010
0001
,
1100
0010
0100
0001
1010
0100
0010
0001
,
1100
0010
0100
0001
1010
0100
0010
0001
,
1100
0010
0100
0001
1010
0100
0010
0001
,
1100
0000
0010
0000
0100
0000
0010
0000
1001
0100
0010
0000
0001
0000
1000
0000
,
0011
0100
0010
1000
0101
0010
0100
1000
,
0011
0100
0010
1000
0101
0010
0100
1000
,
0011
0000
0100
0000
0010
0000
0100
0000
1001
0010
0100
0000
1000
0000
0001
0000
,
1010
0000
0100
0000
1000
0000
0010
0000
1001
0100
0010
0001
1000
0100
0010
0001
,
1100
0010
0100
0001
1010
0100
0010
0001
,
1100
0010
0100
0001
1010
0100
0010
0001
,
1100
0010
0100
0001
1010
0100
0010
0001
,
1100
0000
0010
0000
0100
0000
0010
0000
1001
0100
0010
0000
0001
0000
1000
0000
,
0011
0100
0010
1000
0101
0010
0100
1000
,
0011
0100
0010
1000
0101
0010
0100
1000
,
0011
0000
0100
0000
0010
0000
0100
0000
1001
0010
0100
0000
1000
0000
0001
0000
,
1010
0000
0100
0000
1000
0000
0010
0000
1001
0100
0010
0001
1000
0100
0010
0001
,
1100
0010
0100
0001
1010
0100
0010
0001
,
1100
0010
0100
0001
1010
0100
0010
0001
,
1100
0010
0100
0001
1010
0100
0010
0001
,
1100
0000
0010
0000
0100
0000
0010
0000
1001
0100
0010
0000
0001
0000
1000
0000
,
0011
0100
0010
1000
0101
0010
0100
1000
,
0011
0100
0010
1000
0101
0010
0100
1000
,
0011
0000
0100
0000
0010
0000
0100
0000
1001
0010
0100
0000
1000
0000
0001
0000
,
1010
0000
0100
0000
1000
0000
0010
0000
1001
0100
0010
0001
1000
0100
0010
0001
,
1100
0010
0100
0001
1010
0100
0010
0001
,
1100
0010
0100
0001
1010
0100
0010
0001
,
1100
0010
0100
0001
1010
0100
0010
0001
,
1100
0000
0010
0000
0100
0000
0010
0000
1001
0100
0010
0000
0001
0000
1000
0000
,
0011
0100
0010
1000
0101
0010
0100
1000
,
0011
0100
0010
1000
0101
0010
0100
1000
,
0011
0000
0100
0000
0010
0000
0100
0000
1001
0010
0100
0000
1000
0000
0001
0000
,
1010
0000
0100
0000
1000
0000
0010
0000
1001
0100
0010
0001
1000
0100
0010
0001
,
1010
0100
0010
0100
1001
0010
0001
0010
,
1001
0000
0100
0000
0010
0000
0100
0000
1001
0000
0010
0100
0001
0000
0110
0000
,
1001
0100
0010
0100
1001
0010
0001
0010
,
1001
0100
0010
0100
1001
0010
0101
0010
,
1001
0000
0100
1000
0010
0000
1100
0000
1001
0000
0010
1000
0001
0000
1010
0000
,
1001
0000
0100
1000
0010
0000
1100
0000
1001
0000
0010
1000
0001
0000
1010
0000
,
1001
0101
0011
0101
1001
0011
1001
0011
,
1001
0000
0010
0000
0101
0000
0000
0000
0011
0000
0000
0000
0101
0000
0010
0000
1001
0010
0100
0000
0011
0000
0100
0000
1000
0100
0010
0001
1000
0100
0010
0001
,
1100
0001
0110
0000
1010
0001
0110
0000
1010
0001
1000
0100
1000
0010
1001
0000
,
1010
0001
0110
0000
1010
0001
0110
0000
1010
0001
1000
0100
1000
0010
1001
0100
,
1010
0001
0110
0000
1010
0001
0110
0000
1010
0001
1000
0100
1000
0010
1001
0000
,
1010
0001
0110
0000
1010
0001
0110
0000
1010
0001
0010
0100
1000
0010
1001
0100
,
1010
0001
0110
0000
1010
0001
0110
0000
1010
0001
1000
0100
1000
0010
1001
0000
,
1010
0001
0110
0000
1010
0001
0110
0000
1010
0001
1000
0100
1000
0010
1001
0100
,
1010
0001
0110
0000
1010
0001
0110
0000
1010
0001
1000
0100
1000
0010
1001
0000
,
1010
0000
0001
0000
0110
0000
0000
0000
1010
0000
0001
0000
0110
0000
0001
0000
1010
0100
0001
0000
0010
0000
0100
0000
1000
0100
0010
0001
1000
0100
0010
0001
,
1100
0001
0110
0000
1010
0001
0110
0000
1010
0001
1000
0100
1000
0010
1001
0000
,
1010
0001
0110
0000
1010
0001
0110
0000
1010
0001
1000
0100
1000
0010
1001
0100
,
1010
0001
0110
0000
1010
0001
0110
0000
1010
0001
1000
0100
1000
0010
1001
0000
,
1010
0001
0110
0000
1010
0001
0110
0000
1010
0001
0010
0100
1000
0010
1001
0100
,
1010
0001
0110
0000
1010
0001
0110
0000
1010
0001
1000
0100
1000
0010
1001
0000
,
1010
0001
0110
0000
1010
0001
0110
0000
1010
0001
1000
0100
1000
0010
1001
0100
,
1010
0001
0110
0000
1010
0001
0110
0000
1010
0001
1000
0100
1000
0010
1001
0000
,
1010
0000
0000
0000
0000
0000
0000
0000
0000
0000
0000
0000
0000
0000
0000
0000
0001
0010
0100
0000
1000
0000
0001
0000
1000
0100
0010
0001
1000
0100
0010
0001
;
